#TITLE:不朽的太阳;
#SUBTITLE:;
#ARTIST:张佑赫;
#TITLETRANSLIT:;
#SUBTITLETRANSLIT:;
#ARTISTTRANSLIT:;
#CREDIT:;
#BANNER:̫-logo.jpg;
#BACKGROUND:̫.jpg;
#LYRICSPATH:;
#CDTITLE:DD.png;
#MUSIC:̫.mp3;
#OFFSET:0.000;
#SAMPLESTART:100.000;
#SAMPLELENGTH:12.000;
#SELECTABLE:YES;
#BPMS:0.000=105.990;
#STOPS:;
#BGCHANGES:;
// cache tags:
#FIRSTBEAT:16.000;
#LASTBEAT:236.000;
#SONGFILENAME:Songs/Super Dancer Online/̫/̫.sm;
#HASMUSIC:1;
#HASBANNER:1;
#MUSICLENGTH:138.114;
// end cache tags

//---------------dance-single - 标准----------------
#NOTES:
     dance-single:
     标准:
     Hard:
     6:
     0.486,0.598,0.485,0.022,0.130,394.000,67.000,3.000,0.000,5.000:


0000
0000
0000
0000
,
0000
0000
0000
0000
,
0000
0000
0000
0000
,
0000
0000
0000
0000
,
0010
0010
0010
0010
,
1000
1000
0001
0001
0100
0010
1000
0001
,
0000
0001
0001
1000
0010
0000
0100
0000
,
1000
1000
0001
0001
0100
0010
1000
0001
,
0000
0010
0010
0100
1000
0000
0001
0000
,
1000
0100
0010
0001
0010
0100
1000
0100
,
0000
0100
0100
0010
1001
0000
0110
0000
,
0001
0010
0100
1000
0100
0010
0001
0010
,
0000
0000
1000
0000
0001
0010
0001
0000
1100
0000
0000
0000
0011
0000
0000
0000
,
1000
0100
1001
0100
1000
0100
1001
0100
,
1000
0100
1010
0100
0001
0010
0101
0010
,
0001
0010
1000
0010
0001
0010
1000
0010
,
0001
0010
0110
1000
0100
0010
0011
0000
,
0010
0001
1100
0001
0010
0001
1100
0001
,
1000
0010
1001
0010
0001
0100
1001
0100
,
0010
1000
0100
1000
0010
1000
0100
1000
,
0110
0000
1001
0000
0110
1001
0110
0000
,
1001
0000
0010
0000
0100
0100
0010
0000
,
0110
0000
0000
0000
0001
0000
0000
0000
1000
0010
1000
0000
0011
0100
1000
0000
,
0100
0000
1100
0000
0011
0000
1100
0010
,
0000
0010
1000
0100
1000
0100
1001
0010
,
1000
0010
1100
0000
1000
1000
1001
0000
,
0001
0100
0101
0000
0001
0001
1001
0000
,
1000
0100
0001
0000
1000
1000
1001
0000
,
0001
0100
1000
0001
0110
1001
1001
0110
,
1001
0001
0100
0011
,
1001
0001
1000
0000
0010
0010
1100
0000
,
2001
0001
0100
0000
0001
0000
0100
3000
,
0001
0001
0010
0010
0100
0100
1000
1000
,
0100
0000
0100
0000
0010
0000
0010
0000
0001
1000
0001
1000
0100
1000
0100
1000
,
0001
1000
0110
1000
0001
1000
0110
1000
,
0001
0010
1001
0100
0001
0010
1001
0100
,
1000
0100
0011
0100
1000
0100
0011
0100
,
0001
1000
0110
1000
0001
1000
0110
1000
,
1000
0100
1001
0100
1000
0010
1001
0010
,
1000
0100
0101
0100
1000
0010
0011
0010
,
1000
0001
0010
0001
1000
0100
0010
0001
,
1000
0100
0001
1000
0010
0100
0001
0100
1000
0010
0100
1000
0010
0100
0001
0010
,
1000
1000
1000
1000
,
0001
0001
0001
0001
,
1000
0010
0100
0001
1000
0100
0010
0001
,
1001
0000
0000
0000
1001
0000
0000
0000
1000
0001
0010
0100
1000
0001
0010
0100
,
1000
0001
0010
0100
1000
0001
0010
0100
1000
0100
0010
0001
1000
0010
0100
0001
,
1010
0000
0000
0000
0000
0000
0000
0000
0000
0000
1111
0000
0000
1110
0000
0000
,
0111
0000
1110
0111
,
1001
0100
0100
0100
,
0010
1000
0010
1000
0001
0100
0001
0100
0010
1000
0001
0100
0010
1000
0001
0100
,
1000
0001
0100
0010
1000
0001
0100
0001
,
0000
0100
0010
1000
0001
0001
1000
1000
,
0010
0100
0001
1000
0010
0100
0001
1000
,
0000
0100
0010
0100
1001
0000
0110
0000
,
0100
1000
0001
0010
0100
1000
0001
0010
,
0000
0100
0001
0100
0011
0000
1100
0000
,
1000
0100
0001
0100
1000
0010
0001
0010
,
2002
0000
0000
0000
0000
0000
0000
3003
,
1001
0000
0000
0000
;
